» » Guitar Signature Licks - Eric Clapton The Early Years


 
 
 


Guitar Signature Licks - Eric Clapton The Early Years

Author: mitsumi on 3-11-2018, 21:01, Views: 22

0
Guitar Signature Licks - Eric Clapton The Early Years

Guitar Signature Licks - Eric Clapton The Early Years
DVDRip | English | AVI | 640 x 464 | XviD ~1085 kbps | 29.970 fps
MP3 192 Kbps 48.0 KHz | 2 channels | 01:16:27 | 650.7 MB
Genre: eLearning Video / Guitar lesson
Eric Clapton is one of the world's most acclaimed and well known guitarists. His style has influenced and inspired countless other musicians and his amazing technique has earned him the name 'Slow Hand'.


[/quote]Now in this fabulous DVD from the Guitar Signature Licks Series, you can learn the licks, riffs and solos that propelled him and his bands into superstardom.
The Early Years features tuition of eight classics songs from Clapton's time with The Yardbirds, John Mayall's Blues Breakers, Cream, Blind Faith and Derek and the Dominos.
The DVD bonus features include Guitar Technique section, Jam-along songs and practice tips.

Content:
I Ain't Got You (4:31)
All Your Love (I Miss Loving) (7:16)
Sunshine of Your Love (6:20)
White Room (4:10)
Cross Road Blues (Crossroads) (6:16)
Can't Find My Way Home (6:47)
Bell Bottom Blues (5:43)
Layla (3:14)
Techniques & Tips (13:48)

Jam-alongs:
I Ain't Got You - Jam-along (1:09)
All Your Love (I Miss Loving) - Jam-along (1:57)
Sunshine of Your Love - Jam-along (2:08)
White Room - Jam-along (1:23)
Cross Road Blues (Crossroads) - Jam-along (1:41)
Can't Find My Way Home - Jam-along (2:04)
Bell Bottom Blues - Jam-along (1:52)
Layla - Jam-along (0:54)

[i]also You can find my other great: [quote]https://rapu.world/search/?category_slug=&query=Guitar&language=7&age=&author=ParRus&search=1[/quote]


General
Complete name : 02_-_All_Your_Love_(I_Miss_Loving).avi
Format : AVI
Format/Info : Audio Video Interleave
File size : 66.7 MiB
Duration : 7 min 16 s
Overall bit rate : 1 284 kb/s

Video
ID : 0
Format : MPEG-4 Visual
Format profile : Advanced Simple@L5
Format settings : BVOP1
Format settings, BVOP : 1
Format settings, QPel : No
Format settings, GMC : No warppoints
Format settings, Matrix : Default (MPEG)
Codec ID : XVID
Codec ID/Hint : XviD
Duration : 7 min 16 s
Bit rate : 1 085 kb/s
Width : 640 pixels
Height : 464 pixels
Display aspect ratio : 1.379
Frame rate : 29.970 (30000/1001) FPS
Color space : YUV
Chroma subsampling : 4:2:0
Bit depth : 8 bits
Scan type : Progressive
Compression mode : Lossy
Bits/(Pixel*Frame) : 0.122
Stream size : 56.4 MiB (84%)
Writing library : XviD 1.2.1 (UTC 2008-12-04)

Audio
ID : 1
Format : MPEG Audio
Format version : Version 1
Format profile : Layer 3
Format settings : Joint stereo / MS Stereo
Codec ID : 55
Codec ID/Hint : MP3
Duration : 7 min 16 s
Bit rate mode : Constant
Bit rate : 192 kb/s
Channel(s) : 2 channels
Sampling rate : 48.0 kHz
Frame rate : 41.667 FPS (1152 SPF)
Compression mode : Lossy
Stream size : 9.98 MiB (15%)
Alignment : Aligned on interleaves
Interleave, duration : 200 ms (6.00 video frames)
Interleave, preload duration : 504 ms
Writing library : LAME3.98r
Encoding settings : -m j -V 4 -q 0 -lowpass 18.6 -b 192

Screenshots
Guitar Signature Licks - Eric Clapton The Early Years

Guitar Signature Licks - Eric Clapton The Early Years

Guitar Signature Licks - Eric Clapton The Early Years

Guitar Signature Licks - Eric Clapton The Early Years


Download link:

[quote]
rapidgator_net:
http://rapidgator.net/file/3fb61465a4c9c696506268f8717a2c25/knbip.Guitar.Signature.Licks..Eric.Clapton.The.Early.Years.part1.rar.html
http://rapidgator.net/file/3193ec4b9d0deecf1bf31c60c43afc38/knbip.Guitar.Signature.Licks..Eric.Clapton.The.Early.Years.part2.rar.html
http://rapidgator.net/file/b464ea47d6b6b4c6f743d9c2a39ca6ed/knbip.Guitar.Signature.Licks..Eric.Clapton.The.Early.Years.part3.rar.html
http://rapidgator.net/file/28df44d024ae0ef8ae0db602cb35e008/knbip.Guitar.Signature.Licks..Eric.Clapton.The.Early.Years.part4.rar.html
http://rapidgator.net/file/df00be743ffb93ddd23fb851aa1e424f/knbip.Guitar.Signature.Licks..Eric.Clapton.The.Early.Years.part5.rar.html
http://rapidgator.net/file/d318e4285e31ffa5c991ace622ade7e3/knbip.Guitar.Signature.Licks..Eric.Clapton.The.Early.Years.part6.rar.html
http://rapidgator.net/file/5593aaa0b64db4766b0b44ebcebf2fef/knbip.Guitar.Signature.Licks..Eric.Clapton.The.Early.Years.part7.rar.html

nitroflare_com:
http://nitroflare.com/view/6201B959D30339B/knbip.Guitar.Signature.Licks..Eric.Clapton.The.Early.Years.part1.rar
http://nitroflare.com/view/661123A6F8B47D9/knbip.Guitar.Signature.Licks..Eric.Clapton.The.Early.Years.part2.rar
http://nitroflare.com/view/4070BBEE695D8B3/knbip.Guitar.Signature.Licks..Eric.Clapton.The.Early.Years.part3.rar
http://nitroflare.com/view/D350193BC749910/knbip.Guitar.Signature.Licks..Eric.Clapton.The.Early.Years.part4.rar
http://nitroflare.com/view/066D1F0159225D4/knbip.Guitar.Signature.Licks..Eric.Clapton.The.Early.Years.part5.rar
http://nitroflare.com/view/6A81BF621FAAC30/knbip.Guitar.Signature.Licks..Eric.Clapton.The.Early.Years.part6.rar
http://nitroflare.com/view/134D72C77129C1D/knbip.Guitar.Signature.Licks..Eric.Clapton.The.Early.Years.part7.rar

uploadgig_com:
https://uploadgig.com/file/download/0B8e64cEffFda000/knbip.Guitar.Signature.Licks..Eric.Clapton.The.Early.Years.part1.rar
https://uploadgig.com/file/download/F8FD899dD0131c5d/knbip.Guitar.Signature.Licks..Eric.Clapton.The.Early.Years.part2.rar
https://uploadgig.com/file/download/7e0a2c613fc33467/knbip.Guitar.Signature.Licks..Eric.Clapton.The.Early.Years.part3.rar
https://uploadgig.com/file/download/57f83a40a383b2e7/knbip.Guitar.Signature.Licks..Eric.Clapton.The.Early.Years.part4.rar
https://uploadgig.com/file/download/d5C16A8c10f53451/knbip.Guitar.Signature.Licks..Eric.Clapton.The.Early.Years.part5.rar
https://uploadgig.com/file/download/466538cF39995b25/knbip.Guitar.Signature.Licks..Eric.Clapton.The.Early.Years.part6.rar
https://uploadgig.com/file/download/d6FbdA3c9b351824/knbip.Guitar.Signature.Licks..Eric.Clapton.The.Early.Years.part7.rar

uploaded_net:
http://uploaded.net/file/tadnjfeh/knbip.Guitar.Signature.Licks..Eric.Clapton.The.Early.Years.part1.rar
http://uploaded.net/file/fv2pr2ns/knbip.Guitar.Signature.Licks..Eric.Clapton.The.Early.Years.part2.rar
http://uploaded.net/file/tg5bio2c/knbip.Guitar.Signature.Licks..Eric.Clapton.The.Early.Years.part3.rar
http://uploaded.net/file/c96znaw5/knbip.Guitar.Signature.Licks..Eric.Clapton.The.Early.Years.part4.rar
http://uploaded.net/file/hd8drnmz/knbip.Guitar.Signature.Licks..Eric.Clapton.The.Early.Years.part5.rar
http://uploaded.net/file/qqnrg389/knbip.Guitar.Signature.Licks..Eric.Clapton.The.Early.Years.part6.rar
http://uploaded.net/file/fr70gkad/knbip.Guitar.Signature.Licks..Eric.Clapton.The.Early.Years.part7.rar
[/quote]

Links are Interchangeable - No Password - Single Extraction

Category: Tutorial

Dear visitor, you are browsing our website as Guest.
We strongly recommend you to register and login to view hidden contents.
 
1080p, 2016, 2017, 2018, 720p, Adobe, and, BluRay, BRRip, Build, Complete, Converter, Crack, Data, Edition, Enterprise, Final, for, Mac, macOS, MacOSX, Microsoft, Multilingual, Office, Patch, Photo, Portable, Premium, Pro, Professional, Studio, The, Ultimate, Video, Web, Windows, With, x264, x64, x86

» Show all tags